<?xml version="1.0" standalone="no"?>
<!DOCTYPE svg PUBLIC "-//W3C//DTD SVG 1.1//EN" "http://www.w3.org/Graphics/SVG/1.1/DTD/svg11.dtd" >
<svg xmlns="http://www.w3.org/2000/svg">
<metadata>
This is a custom SVG webfont generated by Font Squirrel.
Copyright   : 2008 Schwartzco Inc
Designer    : Christian Schwartz
Foundry     : Commercial Type
Foundry URL : httpcommercialtypecom
</metadata>
<defs>
<font id="StagBook" horiz-adv-x="1204" >
<font-face units-per-em="2048" ascent="1638" descent="-410" />
<missing-glyph horiz-adv-x="339" />
<glyph unicode=" "  horiz-adv-x="339" />
<glyph unicode="&#x09;" horiz-adv-x="339" />
<glyph unicode="&#xa0;" horiz-adv-x="339" />
<glyph unicode="!" horiz-adv-x="376" d="M55 119q0 53 39 92t94.5 39t94.5 -39t39 -92t-39 -91t-94.5 -38t-94.5 38t-39 91zM70 1298v136h239v-136l-55 -929h-129z" />
<glyph unicode="&#x22;" horiz-adv-x="638" d="M57 1309v125h217v-125l-51 -293h-117zM365 1309v125h217v-125l-52 -293h-114z" />
<glyph unicode="#" horiz-adv-x="980" d="M39 451v180h180l33 223h-154v180h181l59 400h147l-59 -400h215l59 400h148l-60 -400h154v-180h-180l-33 -223h154v-180h-181l-63 -451h-147l63 451h-215l-64 -451h-147l64 451h-154zM367 631h215l32 223h-215z" />
<glyph unicode="$" horiz-adv-x="1058" d="M45 51v297h139q12 -109 71.5 -153.5t197.5 -57.5v506q-205 55 -302.5 142t-97.5 268q0 166 103.5 269t296.5 120v123h131v-119q203 -8 364 -66v-278h-137q-16 98 -64.5 139t-162.5 55v-473q223 -61 321.5 -144t98.5 -261q0 -190 -109 -300t-311 -126v-201h-131v197 q-209 6 -408 63zM252 1081q0 -88 46 -136t155 -83v432q-201 -33 -201 -213zM584 143q207 35 207 242q0 88 -50.5 136t-156.5 83v-461z" />
<glyph unicode="%" horiz-adv-x="1560" d="M43 1075q0 178 97.5 275.5t240.5 97.5t239.5 -97.5t96.5 -275.5t-96.5 -275.5t-239.5 -97.5t-240.5 97.5t-97.5 275.5zM195 -70l1009 1563h164l-1010 -1563h-163zM233 1073q0 -244 148 -244q145 0 145 244q0 246 -145 246q-148 0 -148 -246zM844 358.5q0 178.5 97 275.5 t240.5 97t240 -97t96.5 -275.5t-96.5 -275.5t-240 -97t-240.5 97t-97 275.5zM1034 356q0 -244 148 -243q145 0 145 243q0 246 -145 246q-148 0 -148 -246z" />
<glyph unicode="&#x26;" horiz-adv-x="1427" d="M51 395q0 287 311 420q-96 127 -96 279q0 160 110.5 257t293.5 97q104 0 207 -47q23 0 28 33h150v-355h-162l-27 142q-78 66 -178 65q-90 0 -139 -50t-49 -132q0 -72 34.5 -127t106.5 -131l369 -391q59 115 84 264h-113v131h414v-131h-64q-51 0 -63 -51 q-43 -178 -135 -342l129 -138q57 -57 94 -57h39v-131h-269l-139 147q-168 -162 -430 -161q-242 0 -374 110.5t-132 298.5zM295 424q0 -125 73.5 -205t219.5 -80q170 0 289 125l-422 447q-160 -90 -160 -287z" />
<glyph unicode="'" horiz-adv-x="331" d="M57 1309v125h217v-125l-51 -293h-117z" />
<glyph unicode="(" horiz-adv-x="606" d="M47 719q0 182 40 327.5t107.5 238.5t143.5 149.5t160 83.5h77v-121q-326 -133 -325 -678q0 -561 325 -703v-116h-77q-86 27 -162 85t-142.5 152t-106.5 245t-40 337z" />
<glyph unicode=")" horiz-adv-x="606" d="M31 16q326 141 325 703q0 545 -325 678v121h78q84 -27 159.5 -83.5t143 -149.5t107.5 -238.5t40 -327.5q0 -186 -40 -337t-106.5 -245t-142 -152.5t-161.5 -84.5h-78v116z" />
<glyph unicode="*" horiz-adv-x="735" d="M41 963l61 71l244 53l-244 54l-61 73l55 95l92 -17l168 -184l-75 238l32 88h111l31 -88l-76 -238l170 184l90 17l55 -95l-59 -73l-246 -54l246 -53l59 -71l-53 -95l-92 15l-170 182l76 -234l-31 -88h-111l-32 88l75 234l-168 -182l-92 -15z" />
<glyph unicode="+" horiz-adv-x="1015" d="M51 625v166h369v389h178v-389h367v-166h-367v-389h-178v389h-369z" />
<glyph unicode="," horiz-adv-x="374" d="M45 -109q113 23 113 89q0 12 -5.5 20t-11.5 12l-18 11.5t-19 11.5q-51 35 -51 100q0 49 37 82t90 33q61 0 102.5 -42t41.5 -120q0 -264 -279 -299v102z" />
<glyph unicode="-" horiz-adv-x="542" d="M55 524v170h430v-170h-430z" />
<glyph unicode="." horiz-adv-x="372" d="M53 119q0 53 39 92t94.5 39t94 -39t38.5 -92t-38.5 -91t-94.5 -38q-57 0 -95 38t-38 91z" />
<glyph unicode="/" horiz-adv-x="671" d="M4 -100l496 1618h162l-496 -1618h-162z" />
<glyph unicode="0" horiz-adv-x="1320" d="M55 717q0 350 173 540.5t431.5 190.5t432.5 -189.5t174 -541.5t-174 -541.5t-432.5 -189.5t-431.5 190.5t-173 540.5zM303 713q0 -571 356 -572q358 0 359 572q0 573 -359 573q-356 0 -356 -573z" />
<glyph unicode="1" horiz-adv-x="727" d="M29 1130v130l305 174h158v-1237q0 -23 19 -44.5t42 -21.5h141v-131h-661v131h160q25 0 43 21.5t18 44.5v1015l-166 -82h-59z" />
<glyph unicode="2" horiz-adv-x="1060" d="M45 109q0 96 29.5 178t93 151.5t121 116.5t151.5 111q76 51 92 63l73 54q56 42 72 62l44 57q29 38 37 73t8 76q0 238 -240 237q-123 0 -189.5 -45t-86.5 -145h-139v272q203 78 424 78q229 0 353 -99.5t124 -295.5q0 -47 -8.5 -89t-30.5 -82l-39 -69q-16 -29 -58 -64.5 t-61.5 -54t-76.5 -54.5l-73 -47l-81 -50q-152 -90 -239 -176t-93 -191h559l20 191h156v-367h-942v109z" />
<glyph unicode="3" horiz-adv-x="1032" d="M37 59v250h137q35 -168 270 -168q139 0 216 70t77 201q0 244 -291 243h-116v158h100q293 0 293 242q0 233 -242 233q-225 0 -262 -160h-133v244q203 76 412 76q459 0 458 -369q0 -270 -290 -334v-6q315 -53 315 -345q0 -193 -141 -300q-143 -109 -394 -108 q-221 -1 -409 73z" />
<glyph unicode="4" horiz-adv-x="1107" d="M33 354v187l663 893h215v-926h164v-154h-164v-157q0 -23 19.5 -44.5t42.5 -21.5h102v-131h-559v131h102q23 0 43.5 21.5t20.5 44.5v157h-649zM190 508h492v661h-8l-484 -653v-8z" />
<glyph unicode="5" horiz-adv-x="1036" d="M37 70v241h137q20 -90 84 -130t184 -40q139 0 221 80t82 234q0 145 -73.5 215.5t-190.5 70.5q-168 0 -264 -112h-145v805h860v-316h-154l-20 139h-512v-446h6q106 90 293 90q193 0 317.5 -109.5t124.5 -328.5q0 -223 -147.5 -350t-393.5 -127q-219 0 -409 84z" />
<glyph unicode="6" horiz-adv-x="1171" d="M55 686q0 360 185.5 561t496.5 201q182 0 310 -41v-190h-132q-68 72 -192 71q-113 0 -197 -45t-131 -126t-69.5 -174t-24.5 -204q147 156 379 156q195 0 318.5 -109.5t123.5 -316.5q0 -217 -142 -350t-374 -133q-248 0 -399.5 177t-151.5 523zM301 602q8 -240 85 -351.5 t220 -111.5q137 0 207 86t70 236q0 137 -71 205.5t-196 68.5q-190 0 -315 -133z" />
<glyph unicode="7" horiz-adv-x="1036" d="M35 1044v390h969v-197l-568 -1237h-227v96l627 1153v6h-627l-19 -211h-155z" />
<glyph unicode="8" horiz-adv-x="1175" d="M51 401q0 274 299 363v6q-233 78 -233 305q0 170 129 271.5t342 101.5q215 0 344 -101.5t129 -271.5q0 -227 -238 -305v-6q301 -82 301 -363q0 -193 -140 -304t-396 -111t-396.5 111t-140.5 304zM291 412q0 -125 73.5 -199t223 -74t223.5 74t74 199q0 127 -75 202.5 t-222.5 75.5t-222 -75.5t-74.5 -202.5zM346 1062.5q0 -108.5 62.5 -165.5t179.5 -57t180 57t63 165.5t-63 168t-180 59.5t-179.5 -59.5t-62.5 -168z" />
<glyph unicode="9" horiz-adv-x="1171" d="M51 965q0 217 142.5 350t373.5 133q248 0 399.5 -177t151.5 -523q0 -367 -179 -564.5t-490 -197.5q-203 0 -343 53v194h132q41 -47 87 -69.5t136 -22.5q150 0 245 82t129.5 200t36.5 271q-147 -156 -378 -155q-195 0 -319 109.5t-124 316.5zM289 973q0 -137 71.5 -206 t196.5 -69q190 0 315 133q-8 240 -83.5 348.5t-221.5 108.5q-139 0 -208.5 -84t-69.5 -231z" />
<glyph unicode=":" horiz-adv-x="376" d="M55 119q0 53 38 92t95 39q55 0 94.5 -39t39.5 -92t-39 -91t-95 -38q-57 0 -95 38t-38 91zM55 727q0 55 38 93t95 38q55 0 94.5 -38t39.5 -93q0 -53 -39 -90t-95 -37q-57 0 -95 37t-38 90z" />
<glyph unicode=";" horiz-adv-x="376" d="M43 -109q115 23 115 89q0 12 -5.5 20t-11.5 12l-18 11.5t-19 11.5q-51 35 -51 100q0 49 37 82t90 33q61 0 102.5 -42t41.5 -120q0 -264 -281 -299v102zM55 727q0 55 38 93t95 38q55 0 94.5 -38t39.5 -93q0 -53 -39 -90t-95 -37q-57 0 -95 37t-38 90z" />
<glyph unicode="&#x3c;" horiz-adv-x="940" d="M49 600v150l778 399h58v-164l-613 -305v-4l613 -309v-166h-58z" />
<glyph unicode="=" horiz-adv-x="997" d="M53 365v165h891v-165h-891zM53 758v166h891v-166h-891z" />
<glyph unicode="&#x3e;" horiz-adv-x="940" d="M57 201v164l611 303v6l-611 307v168h56l780 -399v-150l-780 -399h-56z" />
<glyph unicode="?" horiz-adv-x="890" d="M49 1135v241q174 72 371 72q201 0 313.5 -90t112.5 -264q0 -119 -55.5 -197t-174.5 -174q-121 -100 -167 -172q-39 -59 -39 -144q0 -19 2 -38h-146q-7 50 -7 94q0 71 19 125q30 88 132 194l31 33l38 39q8 8 34 38t35 48t24.5 46t20.5 55.5t5 56.5q0 193 -186 192 q-188 0 -228 -155h-135zM219 119q0 53 39 92t94.5 39t94 -39t38.5 -92t-38.5 -91t-94 -38t-94.5 38t-39 91z" />
<glyph unicode="@" horiz-adv-x="1779" d="M53 498q0 201 79 368.5t206 273t279.5 163t308.5 57.5q215 0 394 -76t294 -231.5t115 -362.5q0 -268 -139.5 -409.5t-334.5 -141.5q-215 0 -254 144q-131 -143 -286 -144q-121 0 -186.5 68.5t-65.5 198.5q0 225 149 395q129 145 320 145q127 0 209 -78q72 68 119 68h73 l-123 -533q-9 -37 -9 -64q0 -87 87 -87q125 0 209 110.5t84 327.5q0 254 -183.5 399.5t-471.5 145.5q-135 0 -261 -46t-227.5 -134t-163 -232.5t-61.5 -324.5q0 -324 188.5 -481.5t493.5 -157.5q303 0 496 129h84v-97q-217 -156 -580 -155q-166 0 -313.5 45t-267 134 t-190.5 238.5t-71 344.5zM668 399q0 -133 104 -133q111 0 227 129l91 391q-53 29 -129 29q-117 0 -199 -108q-94 -126 -94 -308z" />
<glyph unicode="A" horiz-adv-x="1476" d="M23 0v131h51q59 0 88 70l370 1028q10 31 -2 50t-41 19h-110v136h518l420 -1235q10 -29 32.5 -48.5t49.5 -19.5h55v-131h-559v131h201l-109 322h-561l-55 -158q-19 -53 -19 -89q0 -75 84 -75h96v-131h-509zM477 592h465l-221 665h-8z" />
<glyph unicode="B" horiz-adv-x="1224" d="M33 0v135h86q23 0 43 21.5t20 44.5v1034q0 23 -20.5 45.5t-42.5 22.5h-86v131h571q514 0 514 -363q0 -252 -289 -311v-6q350 -47 351 -346q0 -203 -147.5 -305.5t-405.5 -102.5h-594zM420 143h201q162 0 236.5 68t74.5 207q0 137 -74 198.5t-246 61.5h-192v-535zM420 817 h176q145 0 215 56.5t70 181.5q0 127 -69 180t-214 53h-178v-471z" />
<glyph unicode="C" horiz-adv-x="1290" d="M53 717q0 348 190.5 539.5t504.5 191.5q168 0 286 -53q29 0 33 39h150v-439h-162l-25 203q-109 90 -276 90q-203 0 -327 -140t-124 -423q0 -287 114.5 -435.5t325.5 -148.5q252 0 385 183h113v-168q-203 -170 -506 -170q-315 0 -498.5 190.5t-183.5 540.5z" />
<glyph unicode="D" horiz-adv-x="1413" d="M33 0v131h86q23 0 43 21.5t20 44.5v1034q0 23 -20.5 45t-42.5 22h-86v136h579q745 0 746 -713q0 -362 -192.5 -541.5t-561.5 -179.5h-571zM420 139h184q260 0 383 137.5t123 442.5q0 303 -122 436t-384 133h-184v-1149z" />
<glyph unicode="E" d="M33 0v131h86q23 0 43 21.5t20 44.5v1034q0 23 -20.5 45t-42.5 22h-86v136h1108v-381h-150l-24 235h-551v-485h280l17 170h143v-481h-143l-17 170h-280v-519h569l25 263h153v-406h-1130z" />
<glyph unicode="F" horiz-adv-x="1169" d="M33 0v131h86q23 0 43 21.5t20 44.5v1034q0 23 -20.5 45t-42.5 22h-86v136h1097v-394h-147l-27 248h-536v-518h272l19 174h141v-498h-141l-19 183h-272v-498h184v-131h-571z" />
<glyph unicode="G" horiz-adv-x="1376" d="M53 717q0 348 190.5 539.5t506.5 191.5q143 0 278 -53q27 0 33 39h149v-426h-161l-25 182q-125 98 -272 98q-203 0 -326 -140t-123 -423q0 -289 108.5 -436.5t313.5 -147.5q150 0 266 64v325h-170v136h527v-136h-60q-25 0 -44 -21.5t-19 -43.5v-465h-131q0 20 -13.5 39.5 t-38.5 19.5q-176 -74 -327 -73q-309 0 -485.5 189.5t-176.5 541.5z" />
<glyph unicode="H" horiz-adv-x="1486" d="M33 0v131h86q23 0 43 21.5t20 44.5v1034q0 23 -20.5 45t-42.5 22h-86v136h569v-136h-182v-493h645v493h-182v136h571v-136h-86q-25 0 -45 -22.5t-20 -44.5v-1034q0 -23 20 -44.5t45 -21.5h86v-131h-571v131h182v535h-645v-535h182v-131h-569z" />
<glyph unicode="I" horiz-adv-x="634" d="M33 0v131h102q25 0 44.5 21.5t19.5 44.5v1034q0 25 -19.5 46t-44.5 21h-102v136h569v-136h-102q-25 0 -44.5 -21.5t-19.5 -45.5v-1034q0 -23 19.5 -44.5t44.5 -21.5h102v-131h-569z" />
<glyph unicode="J" horiz-adv-x="974" d="M29 59v172h131q63 -90 188 -90q195 0 195 205v885q0 25 -18.5 46t-43.5 21h-98v136h559v-136h-98q-23 0 -42.5 -22.5t-19.5 -44.5v-889q0 -180 -105.5 -268t-324.5 -88q-171 -1 -323 73z" />
<glyph unicode="K" horiz-adv-x="1404" d="M33 0v131h86q23 0 43 21.5t20 44.5v1034q0 23 -20.5 45t-42.5 22h-86v136h553v-136h-166v-632l493 522q47 49 39 79.5t-63 30.5h-37v136h500v-136h-60q-45 0 -112 -67l-389 -389l434 -645q43 -66 92 -66h55v-131h-373v123l-372 555l-207 -209v-338h166v-131h-553z" />
<glyph unicode="L" horiz-adv-x="1161" d="M33 0v131h86q23 0 43 21.5t20 44.5v1034q0 23 -20.5 45t-42.5 22h-86v136h594v-136h-207v-1155h522l23 301h161v-444h-1093z" />
<glyph unicode="M" horiz-adv-x="1785" d="M33 0v131h84q25 0 44 21.5t19 44.5v1034q0 25 -19.5 46t-43.5 21h-84v136h520l338 -1072h6l342 1072h514v-136h-86q-25 0 -44 -21.5t-19 -45.5v-1034q0 -23 19 -44.5t44 -21.5h86v-131h-547v131h160v1145h-14l-408 -1276h-166l-405 1276h-13v-1145h162v-131h-489z" />
<glyph unicode="N" horiz-adv-x="1454" d="M33 131h86q23 0 43 21.5t20 44.5v1034q0 23 -20.5 45t-42.5 22h-86v136h401l658 -1047h6v911h-180v136h505v-136h-84q-23 0 -42 -22.5t-19 -44.5v-1231h-205l-704 1114h-9v-983h185v-131h-512v131z" />
<glyph unicode="O" horiz-adv-x="1484" d="M55 717q0 342 198 536.5t490 194.5q291 0 489 -194.5t198 -536.5t-198 -536.5t-489 -194.5q-293 0 -490.5 194.5t-197.5 536.5zM303 712.5q0 -276.5 122 -424t318.5 -147.5t317.5 148.5t121 423.5q0 276 -121 424.5t-318 148.5q-199 0 -319.5 -148.5t-120.5 -425z" />
<glyph unicode="P" horiz-adv-x="1210" d="M33 0v131h86q23 0 43 21.5t20 44.5v1034q0 23 -20.5 45t-42.5 22h-86v136h585q551 0 551 -435q0 -440 -555 -440h-194v-428h182v-131h-569zM420 705h194q166 0 239 71.5t73 220.5q0 145 -74 217t-238 72h-194v-581z" />
<glyph unicode="Q" horiz-adv-x="1484" d="M55 717q0 342 198 536.5t490 194.5q291 0 489 -194.5t198 -536.5q0 -252 -109 -411t-293 -220v-6q326 -43 465 -211v-123h-201q-66 106 -195.5 160.5t-353.5 75.5q-324 29 -506 211t-182 524zM303 713q0 -274 122 -423t318.5 -149t317.5 148.5t121 423.5 q0 276 -121 424.5t-318 148.5q-199 0 -319.5 -148.5t-120.5 -424.5z" />
<glyph unicode="R" horiz-adv-x="1337" d="M33 0v131h86q23 0 43 21.5t20 44.5v1034q0 23 -20.5 45t-42.5 22h-86v136h585q543 0 543 -396q0 -274 -321 -336v-6q117 -25 181 -90t107 -229l52 -191q16 -55 59 -55h70v-131h-336l-80 387q-29 139 -92.5 189.5t-202.5 50.5h-178v-496h182v-131h-569zM420 768h194 q164 0 234 61.5t70 194.5q0 137 -73 201.5t-231 64.5h-194v-522z" />
<glyph unicode="S" horiz-adv-x="1067" d="M45 0v418h162l20 -174q57 -57 124 -83t175 -26q127 0 200 59.5t73 174.5q0 53 -15.5 92t-39 63.5t-65.5 44t-84 32.5l-101 30l-48 12q-197 55 -286.5 148.5t-89.5 269.5q0 188 124.5 287.5t329.5 99.5q139 0 258 -59q10 0 19.5 14t11.5 31h150v-379h-158l-21 143 q-102 98 -260 98q-252 0 -252 -213q0 -47 16.5 -82.5t36 -57t67.5 -43t81 -31.5l105 -29q14 -4 22 -6q221 -59 317.5 -148.5t96.5 -277.5q0 -207 -124 -314.5t-360 -107.5q-178 0 -299 67q-25 0 -30 -53h-156z" />
<glyph unicode="T" horiz-adv-x="1298" d="M49 989v445h1200v-445h-153l-21 303h-307v-1095q0 -23 19.5 -44.5t43.5 -21.5h99v-131h-561v131h98q25 0 44 21.5t19 44.5v1095h-307l-20 -303h-154z" />
<glyph unicode="U" horiz-adv-x="1464" d="M33 1298v136h563v-136h-180v-790q0 -203 89 -280.5t259 -77.5t258 77.5t88 280.5v790h-180v136h502v-136h-82q-23 0 -43.5 -22.5t-20.5 -44.5v-711q0 -535 -547 -534q-268 0 -413.5 133t-145.5 401v711q0 25 -20.5 46t-44.5 21h-82z" />
<glyph unicode="V" horiz-adv-x="1466" d="M31 1298v136h547v-136h-181l361 -1062h4l328 929q14 39 13 67q0 67 -81 66h-88v136h502v-136h-45q-66 0 -91 -71l-446 -1227h-256l-436 1231q-10 27 -34 47t-48 20h-49z" />
<glyph unicode="W" horiz-adv-x="1998" d="M31 1298v136h520l10 -136h-182l239 -991h7l299 1127h192l301 -1127h4l213 856q12 36 12 63q0 72 -85 72h-80v136h487v-136h-35q-63 0 -88 -73l-321 -1225h-256l-271 1020h-4l-276 -1020h-256l-311 1231q-10 29 -33 48t-49 19h-37z" />
<glyph unicode="X" horiz-adv-x="1361" d="M33 0v131h57q53 0 86 47l361 557l-338 500q-43 63 -93 63h-73v136h545v-136h-144l299 -446l203 336q31 57 17.5 83.5t-56.5 26.5h-57v136h489v-136h-80q-20 0 -44.5 -16t-37.5 -37l-331 -528l352 -522q43 -63 98 -64h43v-131h-538v131h161l-315 475l-234 -375 q-27 -43 -13.5 -71.5t54.5 -28.5h76v-131h-487z" />
<glyph unicode="Y" horiz-adv-x="1349" d="M31 1298v136h532v-136h-168l322 -528h4l237 393q24 43 25 73q0 16 -7 28q-19 35 -83 34h-66v136h492v-136h-39q-51 0 -92 -65l-387 -631v-405q0 -23 19.5 -44.5t43.5 -21.5h99v-131h-562v131h99q25 0 44 21.5t19 44.5v397l-401 643q-39 61 -88 61h-43z" />
<glyph unicode="Z" horiz-adv-x="1132" d="M33 0v162l815 1120v6h-586l-26 -233h-148v379h1012v-166l-815 -1121v-4h626l25 258h154v-401h-1057z" />
<glyph unicode="[" horiz-adv-x="514" d="M63 -100v1618h416v-138h-217v-1347h217v-133h-416z" />
<glyph unicode="\" horiz-adv-x="671" d="M10 1518h162l496 -1618h-162z" />
<glyph unicode="]" horiz-adv-x="514" d="M33 33h219v1347h-219v138h418v-1618h-418v133z" />
<glyph unicode="^" horiz-adv-x="763" d="M51 1001v56l246 377h168l248 -377v-56h-144l-184 254h-6l-186 -254h-142z" />
<glyph unicode="_" horiz-adv-x="727" d="M-4 -199h735v-133h-735v133z" />
<glyph unicode="`" horiz-adv-x="819" d="M170 1354v80h221l94 -273h-123z" />
<glyph unicode="a" horiz-adv-x="1077" d="M37 307q0 160 115.5 243t308.5 83q127 0 246 -29v141q0 186 -218 187q-166 0 -278 -101h-102v170q172 84 419 84q199 0 299.5 -72.5t100.5 -244.5v-571q0 -31 18.5 -48.5t46.5 -17.5h56v-111q-51 -33 -142 -32q-170 0 -194 145q-119 -145 -328 -145q-160 0 -254 81.5 t-94 237.5zM256 313q0 -184 199 -184q139 0 252 119v233q-102 20 -201 21q-250 -1 -250 -189z" />
<glyph unicode="b" horiz-adv-x="1157" d="M-39 1298v136h322q41 0 41 -56v-467q158 174 374 174q80 0 151 -27.5t131 -86t95 -166t35 -254.5q0 -152 -41 -264.5t-109.5 -176t-148.5 -93t-170 -29.5q-215 0 -336 125q-12 -49 -37.5 -81t-46.5 -32h-119v1241q0 18 -17 37.5t-38 19.5h-86zM324 221q100 -100 256 -100 q129 0 215 92t86 319q0 391 -283 392q-129 0 -274 -117v-586z" />
<glyph unicode="c" horiz-adv-x="1036" d="M43 535q0 256 150.5 403t402.5 147q227 0 356 -57v-225h-141q-12 76 -66.5 107.5t-152.5 31.5q-150 0 -234 -103.5t-84 -306.5q0 -401 314 -401q174 0 262 123h113v-160q-150 -106 -379 -106q-264 0 -402.5 143.5t-138.5 403.5z" />
<glyph unicode="d" horiz-adv-x="1230" d="M47 524.5q0 147.5 42 260t112.5 176t149.5 94t165 30.5q203 0 330 -127v340h-156v136h336q41 0 41 -56v-1190q0 -20 17.5 -38.5t37.5 -18.5h80v-131h-309q-41 0 -43 147q-137 -160 -356 -159q-86 0 -162 26.5t-142.5 86t-104.5 168t-38 256zM276 530q0 -406 281 -405 q158 0 289 143v572q-115 90 -258 90q-135 0 -223.5 -91.5t-88.5 -308.5z" />
<glyph unicode="e" horiz-adv-x="1081" d="M43 532q0 254 143.5 403.5t378.5 149.5q475 0 475 -516q0 -18 -1 -41.5t-1 -25.5h-764q12 -373 330 -373q178 0 277 121h127v-152q-168 -111 -420 -110q-266 0 -405.5 144t-139.5 400zM279 635h538q-6 166 -68.5 239.5t-183.5 73.5q-123 0 -197.5 -78.5t-88.5 -234.5z " />
<glyph unicode="f" horiz-adv-x="645" d="M20 934v139h142v92q0 285 313 285q98 0 168 -25v-127h-102q-80 0 -119 -28.5t-39 -110.5v-86h225v-139h-225v-748q0 -20 17.5 -37.5t37.5 -17.5h105v-131h-514v131h75q20 0 39 17.5t19 37.5v748h-142z" />
<glyph unicode="g" horiz-adv-x="1036" d="M6 -98q0 147 187 241q-84 43 -84 146q0 111 108 198q-125 92 -125 254q0 154 110.5 249t299.5 95q72 0 133 -12h369v-139h-93q-16 0 -30.5 -11.5t-14.5 -25.5q47 -66 47 -156q0 -150 -111.5 -240.5t-299.5 -90.5q-113 0 -199 34q-29 -41 -29 -90q0 -76 101 -75h301 q326 0 325 -267q0 -168 -130 -266t-412 -98q-453 0 -453 254zM207 -53q0 -78 58.5 -118t203.5 -40q162 0 243 48t81 128q0 63 -39 92t-127 29h-348q-72 -59 -72 -139zM297 741q0 -94 53 -148t151.5 -54t153 54t54.5 148q0 96 -54.5 151.5t-153 55.5t-151.5 -55.5t-53 -151.5 z" />
<glyph unicode="h" horiz-adv-x="1236" d="M23 1298v136h321q41 0 41 -56v-465q186 172 422 172q281 0 280 -266v-633q0 -20 17.5 -37.5t36.5 -17.5h67v-131h-489v131h147v614q0 94 -41 130t-127 36q-143 0 -313 -102v-678h150v-131h-506v131h80q20 0 37.5 17.5t17.5 37.5v1055q0 18 -17.5 37.5t-37.5 19.5h-86z " />
<glyph unicode="i" horiz-adv-x="548" d="M20 934v139h324q41 0 41 -94v-793q0 -20 17.5 -37.5t37.5 -17.5h80v-131h-491v131h80q20 0 37.5 17.5t17.5 37.5v691q0 18 -17.5 37.5t-35.5 19.5h-91zM141 1310.5q0 53.5 37 89.5t90.5 36t90 -37t36.5 -88t-36.5 -88t-90 -37t-90.5 35.5t-37 89z" />
<glyph unicode="j" horiz-adv-x="522" d="M-55 -209h73q80 0 113 35t33 113v938q0 18 -17.5 37.5t-35.5 19.5h-91v139h324q41 0 41 -94v-1051q0 -145 -71.5 -208.5t-213.5 -63.5q-92 0 -155 22v113zM141 1310.5q0 53.5 37 89.5t90.5 36t90 -37t36.5 -88t-36.5 -88t-90 -37t-90.5 35.5t-37 89z" />
<glyph unicode="k" horiz-adv-x="1134" d="M23 1298v136h321q41 0 41 -56v-866l340 346q23 25 15.5 50.5t-35.5 25.5h-50v139h445v-139h-53q-47 0 -91 -43l-266 -266l299 -430q45 -63 90 -64h31v-131h-246l-323 477l-156 -153v-193h135v-131h-491v131h80q20 0 37.5 17.5t17.5 37.5v1055q0 18 -17.5 37.5t-37.5 19.5 h-86z" />
<glyph unicode="l" horiz-adv-x="548" d="M23 1298v136h321q41 0 41 -56v-1192q0 -20 17.5 -37.5t37.5 -17.5h80v-131h-491v131h77q20 0 39 17.5t19 37.5v1055q0 18 -18.5 37.5t-39.5 19.5h-83z" />
<glyph unicode="m" horiz-adv-x="1863" d="M20 934v139h314q51 0 51 -131v-31q195 174 395 174q221 0 260 -180q203 180 406 180q268 0 268 -266v-633q0 -20 17.5 -37.5t37.5 -17.5h68v-131h-489v131h145v619q0 94 -36 127.5t-116 33.5q-125 0 -290 -100v-680h135v-131h-494v131h135v619q0 94 -35.5 127.5 t-113.5 33.5q-135 0 -293 -100v-680h145v-131h-501v131h80q20 0 37.5 17.5t17.5 37.5v691q0 18 -17.5 37.5t-37.5 19.5h-89z" />
<glyph unicode="n" horiz-adv-x="1236" d="M20 934v139h314q53 0 51 -131v-29q186 172 422 172q281 0 280 -266v-633q0 -20 17.5 -37.5t36.5 -17.5h67v-131h-489v131h147v614q0 94 -41 130t-127 36q-143 0 -313 -102v-678h150v-131h-506v131h80q20 0 37.5 17.5t17.5 37.5v691q0 18 -17.5 37.5t-37.5 19.5h-89z" />
<glyph unicode="o" horiz-adv-x="1179" d="M43 532q0 252 155.5 402.5t391.5 150.5q238 0 392.5 -150.5t154.5 -402.5q0 -250 -155 -397t-392.5 -147t-392 147t-154.5 397zM272 530q0 -193 87 -296t230.5 -103t230.5 103.5t87 295.5q0 195 -87 300.5t-230.5 105.5t-230.5 -105.5t-87 -300.5z" />
<glyph unicode="p" d="M20 934v139h314q49 0 49 -125v-26q160 164 362 163q172 0 292 -129t120 -401q0 -145 -40 -253.5t-108.5 -170t-148.5 -90.5t-170 -29q-193 0 -305 99v-320h160v-123h-516v123h80q20 0 37.5 17.5t17.5 37.5v1031q0 18 -17.5 37.5t-37.5 19.5h-89zM385 240q102 -96 246 -97 q297 0 297 394q0 387 -281 387q-123 0 -262 -115v-569z" />
<glyph unicode="q" horiz-adv-x="1161" d="M47 530.5q0 145.5 41 257t110.5 174t147.5 93t164 30.5q207 0 330 -133q10 57 35.5 89t50.5 32h129v-1227q0 -20 17.5 -37.5t37.5 -17.5h84v-123h-522v123h159v361q-131 -139 -339 -140q-86 0 -161 24.5t-141.5 81t-104.5 162t-38 251zM276 535q0 -385 281 -385 q154 0 274 120v574q-121 86 -243 86q-135 0 -223.5 -91t-88.5 -304z" />
<glyph unicode="r" horiz-adv-x="800" d="M20 934v139h314q51 0 51 -143v-35q147 186 320 186q29 0 61 -8v-182h-43q-213 0 -338 -109v-651h170v-131h-526v131h80q20 0 37.5 17.5t17.5 37.5v691q0 18 -17.5 37.5t-37.5 19.5h-89z" />
<glyph unicode="s" horiz-adv-x="899" d="M43 49v223h133q18 -76 73.5 -108.5t164.5 -32.5q238 0 237 164q0 72 -55 103.5t-201 54.5q-176 27 -256 94t-80 221q0 150 108.5 233.5t301.5 83.5q207 0 352 -53v-213h-129q-18 61 -70.5 90t-160.5 29q-98 0 -153.5 -38t-55.5 -103q0 -70 51 -101.5t193 -54.5 q195 -29 277.5 -95.5t82.5 -219.5q0 -158 -111.5 -248t-328.5 -90t-373 61z" />
<glyph unicode="t" horiz-adv-x="667" d="M20 934v139h138v289h221v-289h244v-139h-244v-655q0 -88 32.5 -118t116.5 -30h109v-119q-72 -27 -178 -26q-150 0 -225.5 61.5t-75.5 206.5v680h-138z" />
<glyph unicode="u" horiz-adv-x="1243" d="M20 934v139h357v-751q0 -98 44 -136.5t128 -38.5q145 0 305 107v680h-154v139h375v-885q0 -20 18.5 -38.5t39.5 -18.5h81v-131h-309q-49 0 -49 125v27q-186 -166 -414 -166q-287 0 -286 266v627q0 20 -17.5 37.5t-38.5 17.5h-80z" />
<glyph unicode="v" horiz-adv-x="1198" d="M20 934v139h474v-139h-152l266 -719h4l228 600q13 36 13 61q0 57 -69 58h-53v139h430v-139h-37q-55 0 -84 -68l-352 -866h-203l-348 868q-27 66 -76 66h-41z" />
<glyph unicode="w" horiz-adv-x="1681" d="M20 934v139h447v-139h-123l180 -662h4l232 801h190l232 -801h4l149 543q10 32 10 56q0 20 -7 33q-15 30 -68 30h-51v139h426v-139h-39q-63 0 -84 -68l-252 -866h-209l-230 784h-4l-231 -784h-209l-248 868q-20 66 -76 66h-43z" />
<glyph unicode="x" horiz-adv-x="1132" d="M25 934v139h489v-139h-125l221 -295l158 221q20 29 13 51.5t-42 22.5h-51v139h399v-139h-38q-45 0 -80 -45l-260 -344l274 -350q47 -63 98 -64h23v-131h-475v131h135l-236 313l-155 -223q-21 -31 -21 -53q0 -6 1 -11q7 -26 46 -26h41v-131h-407v131h41q53 0 86 43 l272 361l-264 335q-49 63 -90 64h-53z" />
<glyph unicode="y" d="M20 934v139h476v-139h-158l274 -660l222 541q16 39 16 65q0 54 -68 54h-53v139h438v-139h-47q-49 0 -80 -68l-340 -784q-133 -307 -313 -414h-186v123q180 55 297 236l-363 841q-27 66 -76 66h-39z" />
<glyph unicode="z" horiz-adv-x="987" d="M33 0v150l661 778h-465l-22 -191h-133v336h876v-153l-663 -777h483l21 191h139v-334h-897z" />
<glyph unicode="{" horiz-adv-x="657" d="M33 653v138h51q121 0 121 114v363q0 250 276 250h144v-138h-129q-41 0 -67 -27.5t-26 -68.5v-364q0 -80 -36.5 -127.5t-120.5 -67.5v-4q84 -20 120.5 -67.5t36.5 -129.5v-393q0 -43 26 -70.5t67 -27.5h129v-133h-144q-276 0 -276 250v389q0 51 -30 82.5t-91 31.5h-51z " />
<glyph unicode="|" horiz-adv-x="317" d="M80 -100v1618h158v-1618h-158z" />
<glyph unicode="}" horiz-adv-x="657" d="M33 33h129q41 0 66.5 27.5t25.5 70.5v379q0 80 37 128t121 69v6q-84 20 -121 67t-37 127v377q0 41 -25.5 68.5t-66.5 27.5h-129v138h143q276 0 277 -250v-375q0 -51 30.5 -83t89.5 -32h52v-137h-52q-59 0 -89.5 -31.5t-30.5 -83.5v-376q0 -250 -277 -250h-143v133z" />
<glyph unicode="~" horiz-adv-x="727" d="M33 588q66 123 194 123q51 0 144.5 -29t120.5 -29q63 0 86 70h114v-123q-66 -127 -192 -127q-51 0 -144.5 33t-122.5 33q-61 0 -83 -74h-117v123z" />
<glyph unicode="&#xa1;" horiz-adv-x="376" d="M55 1163.5q0 53.5 39 91t94.5 37.5t94.5 -37.5t39 -91t-39 -92.5t-94.5 -39t-94.5 39t-39 92.5zM68 -16l55 929h129l55 -929v-136h-239v136z" />
<glyph unicode="&#xa2;" horiz-adv-x="1036" d="M43 535q0 233 128 378.5t347 167.5v121h131v-117q184 -6 303 -57v-227h-133q-25 121 -170 135v-801q129 18 209 125h105v-162q-129 -96 -314 -106v-201h-131v199q-231 16 -353 158.5t-122 386.5zM270 532q0 -354 248 -397v797q-248 -50 -248 -400z" />
<glyph unicode="&#xa3;" horiz-adv-x="1036" d="M29 0v131q197 41 196 246q0 90 -39 264h-145v147h109q-39 160 -39 259q0 193 129 297t340 104q205 0 393 -78v-272h-137q-20 106 -78 148t-172 42q-231 0 -232 -235q0 -86 29 -265h360v-147h-340q23 -154 23 -244t-33 -166q174 -51 428 -51l19 189h155v-369h-94 q-389 0 -600 94q-68 -61 -160 -94h-112z" />
<glyph unicode="&#xa5;" horiz-adv-x="1212" d="M29 1298v136h493v-136h-155l270 -489h4l199 354q21 44 21 74q0 16 -6 28q-17 34 -81 33h-55v136h465v-136h-39q-55 0 -90 -65l-277 -469h312v-129h-365v-123h365v-129h-365v-186q0 -23 19.5 -44.5t43.5 -21.5h99v-131h-561v131h98q25 0 44 21.5t19 44.5v186h-366v129h366 v123h-366v129h303l-279 473q-37 61 -90 61h-26z" />
<glyph unicode="&#xa6;" horiz-adv-x="317" d="M80 -100v733h158v-733h-158zM80 797v721h158v-721h-158z" />
<glyph unicode="&#xa7;" horiz-adv-x="1069" d="M47 584q0 209 238 276q-133 82 -133 254q0 154 108.5 244t298.5 90q199 0 348 -55v-224h-141q-14 76 -61.5 103.5t-147.5 27.5q-102 0 -154.5 -41.5t-52.5 -115.5q0 -76 56.5 -115t216.5 -78q203 -49 301 -129t98 -227q0 -207 -236 -281q135 -84 136 -241 q0 -160 -110 -251t-329 -91q-201 0 -372 61v242h141q14 -90 67.5 -125t161.5 -35q223 0 224 170q0 78 -54.5 109.5t-228.5 80.5q-14 4 -23 7q-178 51 -265 131t-87 213zM246 623q0 -72 52 -115t191 -82l148 -45q178 37 178 180q0 76 -66.5 122t-199.5 79l-115 31 q-188 -35 -188 -170z" />
<glyph unicode="&#xa8;" horiz-adv-x="819" d="M113 1304.5q0 49.5 34.5 84t86 34.5t86 -34.5t34.5 -84t-34.5 -84t-86 -34.5t-86 34.5t-34.5 84zM465 1304.5q0 49.5 35 84t86 34.5t86 -34.5t35 -84t-35 -84t-86 -34.5t-86 34.5t-35 84z" />
<glyph unicode="&#xa9;" horiz-adv-x="1548" d="M53 717q0 342 208 536.5t513 194.5q307 0 515 -194.5t208 -536.5t-208 -536.5t-515 -194.5q-305 0 -513 194.5t-208 536.5zM143 717q0 -305 178.5 -480.5t452.5 -175.5q276 0 454.5 175.5t178.5 480.5q0 307 -178 481t-455 174q-274 0 -452.5 -174t-178.5 -481zM399 717 q0 193 106.5 298t276.5 105q84 0 162 -33q18 0 21 25h106v-272h-113l-16 108q-68 55 -145 56q-94 0 -153.5 -69t-59.5 -212q0 -291 217 -291q123 0 194 92h84v-114q-111 -92 -291 -93q-182 0 -285.5 102.5t-103.5 297.5z" />
<glyph unicode="&#xaa;" horiz-adv-x="917" d="M31 786q0 137 97 207t267 70q111 0 193 -19v111q0 80 -43 114t-131 34q-137 0 -230 -76h-94v147q156 74 365 74q170 0 256 -62.5t86 -209.5v-469q0 -27 15 -42.5t40 -15.5h45v-102q-57 -29 -131 -29q-143 0 -170 121q-113 -119 -274 -119q-133 0 -212 67.5t-79 198.5z M233 797q0 -150 154 -150q117 0 201 98v189q-76 16 -158 16q-197 1 -197 -153z" />
<glyph unicode="&#xab;" horiz-adv-x="952" d="M68 471v121l303 385h123v-82l-232 -358v-5l232 -360v-84h-123zM463 471v121l303 385h123v-82l-232 -358v-5l232 -360v-84h-123z" />
<glyph unicode="&#xad;" horiz-adv-x="542" d="M55 524v170h430v-170h-430z" />
<glyph unicode="&#xae;" horiz-adv-x="808" d="M33 1083q0 168 107.5 267.5t262.5 99.5q154 0 262.5 -99.5t108.5 -267.5t-108.5 -267t-262 -99t-262 99t-108.5 267zM106 1083.5q0 -143.5 85 -224.5t212 -81q129 0 214 81t85 224.5t-85 224.5t-214 81q-127 0 -212 -81t-85 -224.5zM238 963h20q4 0 10 5t6 11v219 q0 4 -6 10t-10 6h-20v56h176q147 0 147 -103q0 -61 -74 -84v-2q27 -4 41.5 -19t24.5 -54l10 -33q2 -12 17 -12h14v-54h-117l-18 99q-8 47 -51 47h-35v-92h41v-54h-176v54zM371 1108h37q53 0 53 53q0 49 -53 49h-37v-102z" />
<glyph unicode="&#xaf;" horiz-adv-x="819" d="M152 1219v147h516v-147h-516z" />
<glyph unicode="&#xb0;" horiz-adv-x="694" d="M61 1169q0 123 83 200t204 77q119 0 202 -77t83 -200q0 -121 -83 -198.5t-202 -77.5t-203 77.5t-84 198.5zM190 1169q0 -74 45.5 -121t113 -47t112.5 47.5t45 120.5q0 76 -45 123t-112.5 47t-113 -47t-45.5 -123z" />
<glyph unicode="&#xb2;" horiz-adv-x="638" d="M39 727q0 96 54 165t153 134q119 78 145.5 113t26.5 73q0 111 -119 111t-141 -94h-95v172q113 43 254 43q129 0 204 -57.5t75 -163.5q0 -66 -38 -120t-75 -79t-108 -66q-86 -49 -129 -86.5t-51 -89.5h268l12 88h109v-215h-545v72z" />
<glyph unicode="&#xb3;" horiz-adv-x="618" d="M31 686v160h96q27 -88 135 -88q66 0 103.5 32.5t37.5 94.5q0 111 -143 110h-72v111h66q141 0 141 111q0 109 -119 108q-55 0 -84.5 -18.5t-44.5 -63.5h-92v158q115 43 240 43q127 0 197.5 -51.5t70.5 -149.5q0 -150 -162 -184v-6q176 -27 177 -181q0 -106 -83 -166.5 t-229 -60.5q-126 0 -235 41z" />
<glyph unicode="&#xb4;" horiz-adv-x="819" d="M334 1161l94 273h221v-80l-192 -193h-123z" />
<glyph unicode="&#xb6;" horiz-adv-x="1134" d="M43 1042q0 215 134 303.5t374 88.5h551v-136h-86q-25 0 -44.5 -21.5t-19.5 -45.5v-1417h-139v1474h-147v-1474h-140v837q-229 6 -356 96t-127 295z" />
<glyph unicode="&#xb7;" horiz-adv-x="372" d="M53 618q0 55 38 93.5t95 38.5q55 0 94 -38t39 -94q0 -53 -38.5 -91t-94.5 -38q-57 0 -95 38t-38 91z" />
<glyph unicode="&#xb8;" horiz-adv-x="819" d="M248 -225h59q25 -33 80 -33q74 0 74 55q0 57 -94 58h-37v145h104v-63q172 -6 172 -146q0 -70 -53 -109.5t-145 -39.5q-78 0 -160 34v99z" />
<glyph unicode="&#xb9;" horiz-adv-x="516" d="M27 1227v108l200 99h125v-639q0 -12 12.5 -26.5t24.5 -14.5h98v-99h-456v99h106q12 0 24.5 14t12.5 27v489l-102 -57h-45z" />
<glyph unicode="&#xba;" horiz-adv-x="1003" d="M37 979q0 213 132 341t335 128q201 0 332 -128t131 -341q0 -211 -131 -336t-332 -125q-203 0 -335 125t-132 336zM248 977q0 -158 69.5 -243t186.5 -85q115 0 183.5 85t68.5 243q0 160 -69 246t-183 86q-117 0 -186.5 -86t-69.5 -246z" />
<glyph unicode="&#xbb;" horiz-adv-x="952" d="M63 88v80l230 358v6l-230 361v84h125l301 -383v-121l-301 -385h-125zM459 88v80l231 358v6l-231 361v84h125l303 -383v-121l-303 -385h-125z" />
<glyph unicode="&#xbc;" horiz-adv-x="1400" d="M33 1227v108l200 99h125v-639q0 -12 12.5 -26.5t24.5 -14.5h99v-99h-457v99h106q12 0 24.5 14t12.5 27v489l-102 -57h-45zM162 -70l1009 1563h152l-1010 -1563h-151zM737 203v125l367 450h164v-471h96v-104h-96v-64q0 -12 12 -26.5t27 -14.5h57v-98h-363v98h62 q10 0 23.5 14.5t13.5 26.5v64h-363zM854 307h248v307h-4l-244 -301v-6z" />
<glyph unicode="&#xbd;" horiz-adv-x="1501" d="M33 1227v108l200 99h125v-639q0 -12 12.5 -26.5t24.5 -14.5h99v-99h-457v99h106q12 0 24.5 14t12.5 27v489l-102 -57h-45zM143 -70l1010 1563h152l-1010 -1563h-152zM895 72q0 96 54.5 164.5t152.5 134.5q119 78 145.5 112.5t26.5 73.5q0 111 -119 111t-141 -95h-94v172 q113 43 254 43q129 0 203.5 -57t74.5 -164q0 -66 -38 -120t-74.5 -78.5t-108.5 -65.5q-86 -49 -129 -87t-51 -89h268l12 88h109v-215h-545v72z" />
<glyph unicode="&#xbe;" horiz-adv-x="1415" d="M37 686v160h96q27 -88 135 -88q66 0 104 32.5t38 94.5q0 111 -144 110h-71v111h65q141 0 141 111q0 109 -118 108q-55 0 -85 -18.5t-44 -63.5h-93v158q115 43 240 43q127 0 197.5 -51.5t70.5 -149.5q0 -150 -161 -184v-6q176 -27 176 -181q0 -106 -83 -166.5t-229 -60.5 q-126 0 -235 41zM170 -70l1010 1563h151l-1009 -1563h-152zM752 203v125l366 450h164v-471h96v-104h-96v-64q0 -12 12.5 -26.5t26.5 -14.5h57v-98h-362v98h61q10 0 23.5 14.5t13.5 26.5v64h-362zM868 307h248v307h-4l-244 -301v-6z" />
<glyph unicode="&#xbf;" horiz-adv-x="890" d="M45 190q0 119 55.5 197t173.5 174q121 100 168 172q39 59 39 144q0 19 -2 38h146q7 -50 7 -94q0 -71 -19 -125q-30 -88 -132 -194l-31 -32q-28 -28 -38 -40l-34 -39q-24 -27 -35 -46t-25.5 -47t-20.5 -55.5t-6 -56.5q0 -193 188.5 -192.5t227.5 156.5h135v-242 q-174 -72 -371 -72q-201 0 -313.5 90t-112.5 264zM406 1165.5q0 53.5 38.5 91t94 37.5t94.5 -37.5t39 -91t-39 -92.5t-94.5 -39t-94 39t-38.5 92.5z" />
<glyph unicode="&#xc0;" horiz-adv-x="1476" d="M23 0v131h51q59 0 88 70l370 1028q10 31 -2 50t-41 19h-110v136h518l420 -1235q10 -29 32.5 -48.5t49.5 -19.5h55v-131h-559v131h201l-109 322h-561l-55 -158q-19 -53 -19 -89q0 -75 84 -75h96v-131h-509zM467 1700v80h221l94 -273h-123zM477 592h465l-221 665h-8z" />
<glyph unicode="&#xc1;" horiz-adv-x="1476" d="M23 0v131h51q59 0 88 70l370 1028q10 31 -2 50t-41 19h-110v136h518l420 -1235q10 -29 32.5 -48.5t49.5 -19.5h55v-131h-559v131h201l-109 322h-561l-55 -158q-19 -53 -19 -89q0 -75 84 -75h96v-131h-509zM477 592h465l-221 665h-8zM631 1507l94 273h221v-80l-192 -193 h-123z" />
<glyph unicode="&#xc2;" horiz-adv-x="1476" d="M23 0v131h51q59 0 88 70l370 1028q10 31 -2 50t-41 19h-110v136h518l420 -1235q10 -29 32.5 -48.5t49.5 -19.5h55v-131h-559v131h201l-109 322h-561l-55 -158q-19 -53 -19 -89q0 -75 84 -75h96v-131h-509zM453 1507v60l153 213h195l149 -213v-60h-90l-162 142l-159 -142 h-86zM477 592h465l-221 665h-8z" />
<glyph unicode="&#xc3;" horiz-adv-x="1476" d="M23 0v131h51q59 0 88 70l370 1028q10 31 -2 50t-41 19h-110v136h518l420 -1235q10 -29 32.5 -48.5t49.5 -19.5h55v-131h-559v131h201l-109 322h-561l-55 -158q-19 -53 -19 -89q0 -75 84 -75h96v-131h-509zM381 1520v112q59 119 184 119q51 0 143.5 -32.5t118.5 -32.5 q66 0 86 73h107v-114q-57 -119 -184 -119q-51 0 -143.5 35.5t-119.5 35.5q-66 0 -86 -77h-106zM477 592h465l-221 665h-8z" />
<glyph unicode="&#xc4;" horiz-adv-x="1476" d="M23 0v131h51q59 0 88 70l370 1028q10 31 -2 50t-41 19h-110v136h518l420 -1235q10 -29 32.5 -48.5t49.5 -19.5h55v-131h-559v131h201l-109 322h-561l-55 -158q-19 -53 -19 -89q0 -75 84 -75h96v-131h-509zM410 1651q0 49 34.5 83.5t86 34.5t86 -34.5t34.5 -83.5 t-34.5 -84t-86 -35t-86 35t-34.5 84zM477 592h465l-221 665h-8zM762 1651q0 49 34.5 83.5t86 34.5t86.5 -34.5t35 -83.5t-35 -84t-86.5 -35t-86 35t-34.5 84z" />
<glyph unicode="&#xc5;" horiz-adv-x="1476" d="M23 0v131h51q59 0 88 70l370 1028q10 31 -2 50t-41 19h-110v136h518l420 -1235q10 -29 32.5 -48.5t49.5 -19.5h55v-131h-559v131h201l-109 322h-561l-55 -158q-19 -53 -19 -89q0 -75 84 -75h96v-131h-509zM477 592h465l-221 665h-8zM500 1708q0 88 59 142.5t143 54.5 t143.5 -54.5t59.5 -142.5t-59.5 -142.5t-143.5 -54.5t-143 54.5t-59 142.5zM600 1708q0 -49 28.5 -77.5t74 -28.5t75 28.5t29.5 77.5t-29.5 79t-75 30t-74 -30t-28.5 -79z" />
<glyph unicode="&#xc6;" horiz-adv-x="1996" d="M23 0v131h47q57 0 94 70l567 1026q14 27 2 49t-41 22h-108v136h1349v-381h-149l-25 235h-532v-485h262l16 170h144v-481h-144l-16 170h-262v-519h551l24 263h154v-406h-1114v131h149v322h-508l-88 -158q-31 -54 -30 -92q0 -15 5 -28q17 -44 85 -44h94v-131h-526zM559 592 h432v694h-43z" />
<glyph unicode="&#xc7;" horiz-adv-x="1290" d="M53 717q0 348 190.5 539.5t504.5 191.5q168 0 286 -53q29 0 33 39h150v-439h-162l-25 203q-109 90 -276 90q-203 0 -327 -140t-124 -423q0 -287 114.5 -435.5t325.5 -148.5q252 0 385 183h113v-168q-203 -170 -506 -170h-16v-49q172 -6 172 -146q0 -70 -53.5 -109.5 t-145.5 -39.5q-78 0 -160 34v99h60q25 -33 80 -33q74 0 73 55q0 57 -94 58h-37v139q-262 35 -411.5 221.5t-149.5 501.5z" />
<glyph unicode="&#xc8;" d="M33 0v131h86q23 0 43 21.5t20 44.5v1034q0 23 -20.5 45t-42.5 22h-86v136h1108v-381h-150l-24 235h-551v-485h280l17 170h143v-481h-143l-17 170h-280v-519h569l25 263h153v-406h-1130zM385 1700v80h221l94 -273h-122z" />
<glyph unicode="&#xc9;" d="M33 0v131h86q23 0 43 21.5t20 44.5v1034q0 23 -20.5 45t-42.5 22h-86v136h1108v-381h-150l-24 235h-551v-485h280l17 170h143v-481h-143l-17 170h-280v-519h569l25 263h153v-406h-1130zM543 1507l94 273h221v-80l-192 -193h-123z" />
<glyph unicode="&#xca;" d="M33 0v131h86q23 0 43 21.5t20 44.5v1034q0 23 -20.5 45t-42.5 22h-86v136h1108v-381h-150l-24 235h-551v-485h280l17 170h143v-481h-143l-17 170h-280v-519h569l25 263h153v-406h-1130zM375 1507v60l153 213h195l149 -213v-60h-90l-161 142l-160 -142h-86z" />
<glyph unicode="&#xcb;" d="M33 0v131h86q23 0 43 21.5t20 44.5v1034q0 23 -20.5 45t-42.5 22h-86v136h1108v-381h-150l-24 235h-551v-485h280l17 170h143v-481h-143l-17 170h-280v-519h569l25 263h153v-406h-1130zM328 1651q0 49 34.5 83.5t86 34.5t86 -34.5t34.5 -83.5t-34.5 -84t-86 -35t-86 35 t-34.5 84zM680 1651q0 49 35 83.5t86 34.5t86 -34.5t35 -83.5t-35 -84t-86 -35t-86 35t-35 84z" />
<glyph unicode="&#xcc;" horiz-adv-x="634" d="M33 0v131h102q25 0 44.5 21.5t19.5 44.5v1034q0 25 -19.5 46t-44.5 21h-102v136h569v-136h-102q-25 0 -44.5 -21.5t-19.5 -45.5v-1034q0 -23 19.5 -44.5t44.5 -21.5h102v-131h-569zM80 1700v80h221l94 -273h-123z" />
<glyph unicode="&#xcd;" horiz-adv-x="634" d="M33 0v131h102q25 0 44.5 21.5t19.5 44.5v1034q0 25 -19.5 46t-44.5 21h-102v136h569v-136h-102q-25 0 -44.5 -21.5t-19.5 -45.5v-1034q0 -23 19.5 -44.5t44.5 -21.5h102v-131h-569zM244 1507l94 273h221v-80l-192 -193h-123z" />
<glyph unicode="&#xce;" horiz-adv-x="634" d="M33 0v131h102q25 0 44.5 21.5t19.5 44.5v1034q0 25 -19.5 46t-44.5 21h-102v136h569v-136h-102q-25 0 -44.5 -21.5t-19.5 -45.5v-1034q0 -23 19.5 -44.5t44.5 -21.5h102v-131h-569zM68 1507v60l153 213h195l149 -213v-60h-90l-162 142l-159 -142h-86z" />
<glyph unicode="&#xcf;" horiz-adv-x="634" d="M20 1651q0 49 35 83.5t86.5 34.5t86 -34.5t34.5 -83.5t-34.5 -84t-86 -35t-86.5 35t-35 84zM33 0v131h102q25 0 44.5 21.5t19.5 44.5v1034q0 25 -19.5 46t-44.5 21h-102v136h569v-136h-102q-25 0 -44.5 -21.5t-19.5 -45.5v-1034q0 -23 19.5 -44.5t44.5 -21.5h102v-131 h-569zM373 1651q0 49 34.5 83.5t86 34.5t86 -34.5t34.5 -83.5t-34.5 -84t-86 -35t-86 35t-34.5 84z" />
<glyph unicode="&#xd0;" horiz-adv-x="1413" d="M33 0v131h86q23 0 43 21.5t20 44.5v444h-147v137h147v453q0 23 -20.5 45t-42.5 22h-86v136h579q745 0 746 -713q0 -362 -192.5 -541.5t-561.5 -179.5h-571zM420 139h184q262 0 387 138.5t125 441.5q0 301 -124 435t-388 134h-184v-510h344v-137h-344v-502z" />
<glyph unicode="&#xd1;" horiz-adv-x="1454" d="M33 131h86q23 0 43 21.5t20 44.5v1034q0 23 -20.5 45t-42.5 22h-86v136h401l658 -1047h6v911h-180v136h505v-136h-84q-23 0 -42 -22.5t-19 -44.5v-1231h-205l-704 1114h-9v-983h185v-131h-512v131zM401 1520v112q59 119 185 119q51 0 143 -32.5t119 -32.5q66 0 86 73h106 v-114q-57 -119 -184 -119q-51 0 -143 35.5t-119 35.5q-66 0 -86 -77h-107z" />
<glyph unicode="&#xd2;" horiz-adv-x="1484" d="M55 717q0 342 198 536.5t490 194.5q291 0 489 -194.5t198 -536.5t-198 -536.5t-489 -194.5q-293 0 -490.5 194.5t-197.5 536.5zM303 712.5q0 -276.5 122 -424t318.5 -147.5t317.5 148.5t121 423.5q0 276 -121 424.5t-318 148.5q-199 0 -319.5 -148.5t-120.5 -425z M502 1708v80h221l94 -272h-123z" />
<glyph unicode="&#xd3;" horiz-adv-x="1484" d="M55 717q0 342 198 536.5t490 194.5q291 0 489 -194.5t198 -536.5t-198 -536.5t-489 -194.5q-293 0 -490.5 194.5t-197.5 536.5zM303 712.5q0 -276.5 122 -424t318.5 -147.5t317.5 148.5t121 423.5q0 276 -121 424.5t-318 148.5q-199 0 -319.5 -148.5t-120.5 -425z M668 1516l94 272h221v-80l-192 -192h-123z" />
<glyph unicode="&#xd4;" horiz-adv-x="1484" d="M55 717q0 342 198 536.5t490 194.5q291 0 489 -194.5t198 -536.5t-198 -536.5t-489 -194.5q-293 0 -490.5 194.5t-197.5 536.5zM303 712.5q0 -276.5 122 -424t318.5 -147.5t317.5 148.5t121 423.5q0 276 -121 424.5t-318 148.5q-199 0 -319.5 -148.5t-120.5 -425z M492 1516v59l153 213h195l149 -213v-59h-90l-162 141l-159 -141h-86z" />
<glyph unicode="&#xd5;" horiz-adv-x="1484" d="M55 717q0 342 198 536.5t490 194.5q291 0 489 -194.5t198 -536.5t-198 -536.5t-489 -194.5q-293 0 -490.5 194.5t-197.5 536.5zM303 712.5q0 -276.5 122 -424t318.5 -147.5t317.5 148.5t121 423.5q0 276 -121 424.5t-318 148.5q-199 0 -319.5 -148.5t-120.5 -425z M422 1528v112q59 119 184 119q51 0 143.5 -32.5t118.5 -32.5q66 0 86 73h107v-114q-57 -119 -184 -119q-51 0 -143.5 36t-119.5 36q-66 0 -86 -78h-106z" />
<glyph unicode="&#xd6;" horiz-adv-x="1484" d="M55 717q0 342 198 536.5t490 194.5q291 0 489 -194.5t198 -536.5t-198 -536.5t-489 -194.5q-293 0 -490.5 194.5t-197.5 536.5zM303 712.5q0 -276.5 122 -424t318.5 -147.5t317.5 148.5t121 423.5q0 276 -121 424.5t-318 148.5q-199 0 -319.5 -148.5t-120.5 -425z M444 1659q0 49 35 84t86 35t86 -35t35 -84t-35 -84t-86 -35t-86 35t-35 84zM797 1659q0 49 34.5 84t86 35t86 -35t34.5 -84t-34.5 -84t-86 -35t-86 35t-34.5 84z" />
<glyph unicode="&#xd7;" horiz-adv-x="1017" d="M88 387l305 307l-305 307l115 117l305 -307l307 307l117 -117l-307 -307l307 -307l-117 -119l-307 310l-305 -310z" />
<glyph unicode="&#xd8;" horiz-adv-x="1484" d="M55 717q0 342 198 536.5t490 194.5q211 0 377 -107l101 136h165l-161 -217q205 -205 205 -543q0 -342 -198 -536.5t-489 -194.5q-213 0 -378 104l-109 -149h-164l170 231q-207 201 -207 545zM303 713q0 -233 82 -375l627 854q-106 94 -269 94q-199 0 -319.5 -148.5 t-120.5 -424.5zM471 233q106 -92 272 -92q197 0 318 148.5t121 423.5q0 227 -84 372z" />
<glyph unicode="&#xd9;" horiz-adv-x="1464" d="M33 1298v136h563v-136h-180v-790q0 -203 89 -280.5t259 -77.5t258 77.5t88 280.5v790h-180v136h502v-136h-82q-23 0 -43.5 -22.5t-20.5 -44.5v-711q0 -535 -547 -534q-268 0 -413.5 133t-145.5 401v711q0 25 -20.5 46t-44.5 21h-82zM528 1700v80h222l94 -273h-123z" />
<glyph unicode="&#xda;" horiz-adv-x="1464" d="M33 1298v136h563v-136h-180v-790q0 -203 89 -280.5t259 -77.5t258 77.5t88 280.5v790h-180v136h502v-136h-82q-23 0 -43.5 -22.5t-20.5 -44.5v-711q0 -535 -547 -534q-268 0 -413.5 133t-145.5 401v711q0 25 -20.5 46t-44.5 21h-82zM690 1507l94 273h222v-80l-193 -193 h-123z" />
<glyph unicode="&#xdb;" horiz-adv-x="1464" d="M33 1298v136h563v-136h-180v-790q0 -203 89 -280.5t259 -77.5t258 77.5t88 280.5v790h-180v136h502v-136h-82q-23 0 -43.5 -22.5t-20.5 -44.5v-711q0 -535 -547 -534q-268 0 -413.5 133t-145.5 401v711q0 25 -20.5 46t-44.5 21h-82zM516 1507v60l154 213h194l150 -213 v-60h-90l-162 142l-160 -142h-86z" />
<glyph unicode="&#xdc;" horiz-adv-x="1464" d="M33 1298v136h563v-136h-180v-790q0 -203 89 -280.5t259 -77.5t258 77.5t88 280.5v790h-180v136h502v-136h-82q-23 0 -43.5 -22.5t-20.5 -44.5v-711q0 -535 -547 -534q-268 0 -413.5 133t-145.5 401v711q0 25 -20.5 46t-44.5 21h-82zM471 1651q0 49 35 83.5t86 34.5 t86 -34.5t35 -83.5t-35 -84t-86 -35t-86 35t-35 84zM823 1651q0 49 35 83.5t86 34.5t86 -34.5t35 -83.5t-35 -84t-86 -35t-86 35t-35 84z" />
<glyph unicode="&#xdd;" horiz-adv-x="1349" d="M31 1298v136h532v-136h-168l322 -528h4l237 393q24 43 25 73q0 16 -7 28q-19 35 -83 34h-66v136h492v-136h-39q-51 0 -92 -65l-387 -631v-405q0 -23 19.5 -44.5t43.5 -21.5h99v-131h-562v131h99q25 0 44 21.5t19 44.5v397l-401 643q-39 61 -88 61h-43zM616 1507l95 273 h221v-80l-193 -193h-123z" />
<glyph unicode="&#xde;" horiz-adv-x="1212" d="M33 0v131h86q23 0 43 21.5t20 44.5v1034q0 23 -20.5 45t-42.5 22h-86v136h563v-136h-176v-184h221q250 0 390 -89t140 -298q0 -391 -536 -391h-215v-205h186v-131h-573zM420 481h215q150 0 221.5 57.5t71.5 184.5t-73 185.5t-220 58.5h-215v-486z" />
<glyph unicode="&#xdf;" horiz-adv-x="1265" d="M20 934v139h142q12 162 144 269.5t360 107.5q186 0 303.5 -67.5t117.5 -215.5q0 -135 -182 -266q-82 -57 -109.5 -87t-27.5 -66.5t29.5 -59t132.5 -61.5q156 -61 224.5 -127t68.5 -193q0 -150 -98.5 -234.5t-276.5 -84.5q-168 0 -289 47v219h125q10 -68 49 -98.5 t117 -30.5q80 0 125 37t45 110q0 33 -12.5 57.5t-48 46t-63.5 34t-93 36.5q-117 45 -174.5 103.5t-57.5 144.5q0 59 28 111.5t56.5 81t89.5 80.5q66 59 94.5 99t28.5 95q0 139 -198 139q-141 0 -214 -74.5t-73 -193.5v-901h96v-131h-450v131h77q20 0 38 17.5t18 37.5v748 h-142z" />
<glyph unicode="&#xe0;" horiz-adv-x="1077" d="M37 307q0 160 115.5 243t308.5 83q127 0 246 -29v141q0 186 -218 187q-166 0 -278 -101h-102v170q172 84 419 84q199 0 299.5 -72.5t100.5 -244.5v-571q0 -31 18.5 -48.5t46.5 -17.5h56v-111q-51 -33 -142 -32q-170 0 -194 145q-119 -145 -328 -145q-160 0 -254 81.5 t-94 237.5zM256 313q0 -184 199 -184q139 0 252 119v233q-102 20 -201 21q-250 -1 -250 -189zM266 1354v80h221l95 -273h-123z" />
<glyph unicode="&#xe1;" horiz-adv-x="1077" d="M37 307q0 160 115.5 243t308.5 83q127 0 246 -29v141q0 186 -218 187q-166 0 -278 -101h-102v170q172 84 419 84q199 0 299.5 -72.5t100.5 -244.5v-571q0 -31 18.5 -48.5t46.5 -17.5h56v-111q-51 -33 -142 -32q-170 0 -194 145q-119 -145 -328 -145q-160 0 -254 81.5 t-94 237.5zM256 313q0 -184 199 -184q139 0 252 119v233q-102 20 -201 21q-250 -1 -250 -189zM430 1161l94 273h221v-80l-192 -193h-123z" />
<glyph unicode="&#xe2;" horiz-adv-x="1077" d="M37 307q0 160 115.5 243t308.5 83q127 0 246 -29v141q0 186 -218 187q-166 0 -278 -101h-102v170q172 84 419 84q199 0 299.5 -72.5t100.5 -244.5v-571q0 -31 18.5 -48.5t46.5 -17.5h56v-111q-51 -33 -142 -32q-170 0 -194 145q-119 -145 -328 -145q-160 0 -254 81.5 t-94 237.5zM256 313q0 -184 199 -184q139 0 252 119v233q-102 20 -201 21q-250 -1 -250 -189zM256 1161v60l154 213h194l150 -213v-60h-90l-162 142l-160 -142h-86z" />
<glyph unicode="&#xe3;" horiz-adv-x="1077" d="M37 307q0 160 115.5 243t308.5 83q127 0 246 -29v141q0 186 -218 187q-166 0 -278 -101h-102v170q172 84 419 84q199 0 299.5 -72.5t100.5 -244.5v-571q0 -31 18.5 -48.5t46.5 -17.5h56v-111q-51 -33 -142 -32q-170 0 -194 145q-119 -145 -328 -145q-160 0 -254 81.5 t-94 237.5zM186 1174v112q59 119 185 119q51 0 143 -33t119 -33q66 0 86 74h106v-115q-57 -119 -184 -118q-51 0 -143 35.5t-119 35.5q-66 0 -86 -77h-107zM256 313q0 -184 199 -184q139 0 252 119v233q-102 20 -201 21q-250 -1 -250 -189z" />
<glyph unicode="&#xe4;" horiz-adv-x="1077" d="M37 307q0 160 115.5 243t308.5 83q127 0 246 -29v141q0 186 -218 187q-166 0 -278 -101h-102v170q172 84 419 84q199 0 299.5 -72.5t100.5 -244.5v-571q0 -31 18.5 -48.5t46.5 -17.5h56v-111q-51 -33 -142 -32q-170 0 -194 145q-119 -145 -328 -145q-160 0 -254 81.5 t-94 237.5zM209 1304.5q0 49.5 35 84t86 34.5t86 -34.5t35 -84t-35 -84t-86 -34.5t-86 34.5t-35 84zM256 313q0 -184 199 -184q139 0 252 119v233q-102 20 -201 21q-250 -1 -250 -189zM561 1304.5q0 49.5 35 84t86 34.5t86 -34.5t35 -84t-35 -84t-86 -34.5t-86 34.5t-35 84z " />
<glyph unicode="&#xe5;" horiz-adv-x="1077" d="M37 307q0 160 115.5 243t308.5 83q127 0 246 -29v141q0 186 -218 187q-166 0 -278 -101h-102v170q172 84 419 84q199 0 299.5 -72.5t100.5 -244.5v-571q0 -31 18.5 -48.5t46.5 -17.5h56v-111q-51 -33 -142 -32q-170 0 -194 145q-119 -145 -328 -145q-160 0 -254 81.5 t-94 237.5zM256 313q0 -184 199 -184q139 0 252 119v233q-102 20 -201 21q-250 -1 -250 -189zM303 1362q0 88 59.5 142.5t143.5 54.5t143.5 -54.5t59.5 -142.5t-59.5 -142.5t-143.5 -54.5t-143.5 54.5t-59.5 142.5zM403 1362q0 -49 29 -78t74 -29t74.5 29t29.5 78 t-29.5 78.5t-74.5 29.5t-74 -29.5t-29 -78.5z" />
<glyph unicode="&#xe6;" horiz-adv-x="1726" d="M37 305q0 162 124 246t339 84q139 0 209 -12v122q0 186 -215 187q-170 0 -283 -101h-102v170q172 84 419 84q135 0 219 -35.5t117 -125.5q127 162 359 161q463 0 463 -514q0 -39 -5 -79h-747q16 -362 323 -363q170 0 269 121h127v-152q-164 -111 -414 -110 q-301 0 -436 196q-94 -113 -190.5 -154.5t-227.5 -41.5q-158 0 -253 81.5t-95 235.5zM256 313q0 -184 199 -184q172 0 288 168q-33 92 -34 195q-57 10 -197 10q-256 -1 -256 -189zM936 627h526q-2 172 -60.5 246.5t-178.5 74.5q-123 0 -198 -81.5t-89 -239.5z" />
<glyph unicode="&#xe7;" horiz-adv-x="1036" d="M43 535q0 256 150.5 403t402.5 147q227 0 356 -57v-225h-141q-12 76 -66.5 107.5t-152.5 31.5q-150 0 -234 -103.5t-84 -306.5q0 -401 314 -401q174 0 262 123h113v-160q-150 -106 -379 -106h-17v-51q172 -6 172 -146q0 -70 -53 -109.5t-145 -39.5q-78 0 -160 34v99h59 q25 -33 80 -33q74 0 74 55q0 57 -94 58h-37v141q-207 33 -313.5 172.5t-106.5 366.5z" />
<glyph unicode="&#xe8;" horiz-adv-x="1081" d="M43 532q0 254 143.5 403.5t378.5 149.5q475 0 475 -516q0 -18 -1 -41.5t-1 -25.5h-764q12 -373 330 -373q178 0 277 121h127v-152q-168 -111 -420 -110q-266 0 -405.5 144t-139.5 400zM279 635h538q-6 166 -68.5 239.5t-183.5 73.5q-123 0 -197.5 -78.5t-88.5 -234.5z M315 1354v80h222l94 -273h-123z" />
<glyph unicode="&#xe9;" horiz-adv-x="1081" d="M43 532q0 254 143.5 403.5t378.5 149.5q475 0 475 -516q0 -18 -1 -41.5t-1 -25.5h-764q12 -373 330 -373q178 0 277 121h127v-152q-168 -111 -420 -110q-266 0 -405.5 144t-139.5 400zM279 635h538q-6 166 -68.5 239.5t-183.5 73.5q-123 0 -197.5 -78.5t-88.5 -234.5z M479 1161l94 273h222v-80l-193 -193h-123z" />
<glyph unicode="&#xea;" horiz-adv-x="1081" d="M43 532q0 254 143.5 403.5t378.5 149.5q475 0 475 -516q0 -18 -1 -41.5t-1 -25.5h-764q12 -373 330 -373q178 0 277 121h127v-152q-168 -111 -420 -110q-266 0 -405.5 144t-139.5 400zM279 635h538q-6 166 -68.5 239.5t-183.5 73.5q-123 0 -197.5 -78.5t-88.5 -234.5z M305 1161v60l154 213h194l150 -213v-60h-90l-162 142l-160 -142h-86z" />
<glyph unicode="&#xeb;" horiz-adv-x="1081" d="M43 532q0 254 143.5 403.5t378.5 149.5q475 0 475 -516q0 -18 -1 -41.5t-1 -25.5h-764q12 -373 330 -373q178 0 277 121h127v-152q-168 -111 -420 -110q-266 0 -405.5 144t-139.5 400zM258 1304.5q0 49.5 35 84t86 34.5t86 -34.5t35 -84t-35 -84t-86 -34.5t-86 34.5 t-35 84zM279 635h538q-6 166 -68.5 239.5t-183.5 73.5q-123 0 -197.5 -78.5t-88.5 -234.5zM610 1304.5q0 49.5 35 84t86 34.5t86 -34.5t35 -84t-35 -84t-86 -34.5t-86 34.5t-35 84z" />
<glyph unicode="&#xec;" horiz-adv-x="548" d="M18 1354v80h222l94 -273h-123zM20 934v139h324q41 0 41 -94v-793q0 -20 17.5 -37.5t37.5 -17.5h80v-131h-491v131h80q20 0 37.5 17.5t17.5 37.5v691q0 18 -17.5 37.5t-35.5 19.5h-91z" />
<glyph unicode="&#xed;" horiz-adv-x="548" d="M20 934v139h324q41 0 41 -94v-793q0 -20 17.5 -37.5t37.5 -17.5h80v-131h-491v131h80q20 0 37.5 17.5t17.5 37.5v691q0 18 -17.5 37.5t-35.5 19.5h-91zM182 1161l94 273h222v-80l-193 -193h-123z" />
<glyph unicode="&#xee;" horiz-adv-x="548" d="M8 1161v60l154 213h194l150 -213v-60h-90l-162 142l-160 -142h-86zM20 934v139h324q41 0 41 -94v-793q0 -20 17.5 -37.5t37.5 -17.5h80v-131h-491v131h80q20 0 37.5 17.5t17.5 37.5v691q0 18 -17.5 37.5t-35.5 19.5h-91z" />
<glyph unicode="&#xef;" horiz-adv-x="548" d="M-39 1304.5q0 49.5 35 84t86 34.5t86 -34.5t35 -84t-35 -84t-86 -34.5t-86 34.5t-35 84zM20 934v139h324q41 0 41 -94v-793q0 -20 17.5 -37.5t37.5 -17.5h80v-131h-491v131h80q20 0 37.5 17.5t17.5 37.5v691q0 18 -17.5 37.5t-35.5 19.5h-91zM313 1304.5q0 49.5 35 84 t86 34.5t86 -34.5t35 -84t-35 -84t-86 -34.5t-86 34.5t-35 84z" />
<glyph unicode="&#xf0;" horiz-adv-x="1179" d="M43 522.5q0 241.5 145.5 387t364.5 145.5q193 0 311 -140q-76 174 -235 271l-103 -84h-145v41l125 100q-57 25 -150 45v146h76q127 -25 223 -70l86 70h146v-41l-115 -93q365 -227 365 -718q0 -303 -149.5 -448.5t-397.5 -145.5q-236 0 -391.5 146.5t-155.5 388zM268 520 q0 -186 88 -287.5t234 -101.5q143 0 232 101.5t89 285.5q0 188 -88 291.5t-233.5 103.5t-233.5 -102.5t-88 -290.5z" />
<glyph unicode="&#xf1;" horiz-adv-x="1236" d="M20 934v139h314q53 0 51 -131v-29q186 172 422 172q281 0 280 -266v-633q0 -20 17.5 -37.5t36.5 -17.5h67v-131h-489v131h147v614q0 94 -41 130t-127 36q-143 0 -313 -102v-678h150v-131h-506v131h80q20 0 37.5 17.5t17.5 37.5v691q0 18 -17.5 37.5t-37.5 19.5h-89z M291 1174v112q59 119 184 119q51 0 143.5 -33t118.5 -33q66 0 86 74h107v-115q-57 -119 -185 -118q-51 0 -143 35.5t-119 35.5q-66 0 -86 -77h-106z" />
<glyph unicode="&#xf2;" horiz-adv-x="1179" d="M43 532q0 252 155.5 402.5t391.5 150.5q238 0 392.5 -150.5t154.5 -402.5q0 -250 -155 -397t-392.5 -147t-392 147t-154.5 397zM272 530q0 -193 87 -296t230.5 -103t230.5 103.5t87 295.5q0 195 -87 300.5t-230.5 105.5t-230.5 -105.5t-87 -300.5zM342 1354v80h221 l94 -273h-122z" />
<glyph unicode="&#xf3;" horiz-adv-x="1179" d="M43 532q0 252 155.5 402.5t391.5 150.5q238 0 392.5 -150.5t154.5 -402.5q0 -250 -155 -397t-392.5 -147t-392 147t-154.5 397zM272 530q0 -193 87 -296t230.5 -103t230.5 103.5t87 295.5q0 195 -87 300.5t-230.5 105.5t-230.5 -105.5t-87 -300.5zM506 1161l94 273h221 v-80l-192 -193h-123z" />
<glyph unicode="&#xf4;" horiz-adv-x="1179" d="M43 532q0 252 155.5 402.5t391.5 150.5q238 0 392.5 -150.5t154.5 -402.5q0 -250 -155 -397t-392.5 -147t-392 147t-154.5 397zM272 530q0 -193 87 -296t230.5 -103t230.5 103.5t87 295.5q0 195 -87 300.5t-230.5 105.5t-230.5 -105.5t-87 -300.5zM332 1161v60l153 213 h195l149 -213v-60h-90l-161 142l-160 -142h-86z" />
<glyph unicode="&#xf5;" horiz-adv-x="1179" d="M43 532q0 252 155.5 402.5t391.5 150.5q238 0 392.5 -150.5t154.5 -402.5q0 -250 -155 -397t-392.5 -147t-392 147t-154.5 397zM262 1174v112q59 119 184 119q51 0 143.5 -33t119.5 -33q66 0 86 74h106v-115q-57 -119 -184 -118q-51 0 -143.5 35.5t-118.5 35.5 q-66 0 -86 -77h-107zM272 530q0 -193 87 -296t230.5 -103t230.5 103.5t87 295.5q0 195 -87 300.5t-230.5 105.5t-230.5 -105.5t-87 -300.5z" />
<glyph unicode="&#xf6;" horiz-adv-x="1179" d="M43 532q0 252 155.5 402.5t391.5 150.5q238 0 392.5 -150.5t154.5 -402.5q0 -250 -155 -397t-392.5 -147t-392 147t-154.5 397zM272 530q0 -193 87 -296t230.5 -103t230.5 103.5t87 295.5q0 195 -87 300.5t-230.5 105.5t-230.5 -105.5t-87 -300.5zM285 1304.5 q0 49.5 34.5 84t86 34.5t86 -34.5t34.5 -84t-34.5 -84t-86 -34.5t-86 34.5t-34.5 84zM637 1304.5q0 49.5 35 84t86 34.5t86 -34.5t35 -84t-35 -84t-86 -34.5t-86 34.5t-35 84z" />
<glyph unicode="&#xf7;" horiz-adv-x="1015" d="M51 625v166h914v-166h-914zM379 367q0 55 38 92t93 37q53 0 91 -38t38 -91.5t-38 -90t-91 -36.5q-57 0 -94 37t-37 90zM379 1047q0 55 38 92t93 37q53 0 91 -38t38 -91.5t-38 -90t-91 -36.5q-57 0 -94 37t-37 90z" />
<glyph unicode="&#xf8;" horiz-adv-x="1179" d="M43 532q0 252 155.5 402.5t391.5 150.5q162 0 289 -71l77 102h146l-131 -172q166 -154 166 -412q0 -250 -155 -397t-392 -147q-160 0 -287 69l-86 -112h-145l137 180q-166 153 -166 407zM270 530q0 -156 52 -254l454 603q-76 59 -186 59q-143 0 -231.5 -106.5 t-88.5 -301.5zM399 186q74 -55 191 -55q143 0 231 104.5t88 294.5q0 154 -55 258z" />
<glyph unicode="&#xf9;" horiz-adv-x="1243" d="M20 934v139h357v-751q0 -98 44 -136.5t128 -38.5q145 0 305 107v680h-154v139h375v-885q0 -20 18.5 -38.5t39.5 -18.5h81v-131h-309q-49 0 -49 125v27q-186 -166 -414 -166q-287 0 -286 266v627q0 20 -17.5 37.5t-38.5 17.5h-80zM330 1354v80h221l94 -273h-123z" />
<glyph unicode="&#xfa;" horiz-adv-x="1243" d="M20 934v139h357v-751q0 -98 44 -136.5t128 -38.5q145 0 305 107v680h-154v139h375v-885q0 -20 18.5 -38.5t39.5 -18.5h81v-131h-309q-49 0 -49 125v27q-186 -166 -414 -166q-287 0 -286 266v627q0 20 -17.5 37.5t-38.5 17.5h-80zM494 1161l94 273h221v-80l-193 -193h-122 z" />
<glyph unicode="&#xfb;" horiz-adv-x="1243" d="M20 934v139h357v-751q0 -98 44 -136.5t128 -38.5q145 0 305 107v680h-154v139h375v-885q0 -20 18.5 -38.5t39.5 -18.5h81v-131h-309q-49 0 -49 125v27q-186 -166 -414 -166q-287 0 -286 266v627q0 20 -17.5 37.5t-38.5 17.5h-80zM319 1161v60l154 213h195l149 -213v-60 h-90l-162 142l-159 -142h-87z" />
<glyph unicode="&#xfc;" horiz-adv-x="1243" d="M20 934v139h357v-751q0 -98 44 -136.5t128 -38.5q145 0 305 107v680h-154v139h375v-885q0 -20 18.5 -38.5t39.5 -18.5h81v-131h-309q-49 0 -49 125v27q-186 -166 -414 -166q-287 0 -286 266v627q0 20 -17.5 37.5t-38.5 17.5h-80zM272 1304.5q0 49.5 35 84t86 34.5 t86 -34.5t35 -84t-35 -84t-86 -34.5t-86 34.5t-35 84zM625 1304.5q0 49.5 34.5 84t86 34.5t86 -34.5t34.5 -84t-34.5 -84t-86 -34.5t-86 34.5t-34.5 84z" />
<glyph unicode="&#xfd;" d="M20 934v139h476v-139h-158l274 -660l222 541q16 39 16 65q0 54 -68 54h-53v139h438v-139h-47q-49 0 -80 -68l-340 -784q-133 -307 -313 -414h-186v123q180 55 297 236l-363 841q-27 66 -76 66h-39zM524 1161l94 273h222v-80l-193 -193h-123z" />
<glyph unicode="&#xfe;" horiz-adv-x="1140" d="M-43 1298v136h322q43 0 43 -56v-454q158 162 354 161q178 0 298 -128t120 -402q0 -145 -40 -253.5t-110 -170t-150.5 -90.5t-172.5 -29q-186 0 -299 99v-320h159v-123h-516v123h80q20 0 37.5 17.5t17.5 37.5v1395q0 18 -17 37.5t-38 19.5h-88zM322 240q102 -96 247 -97 q125 0 212 87t87 307q0 387 -280 387q-127 0 -266 -115v-569z" />
<glyph unicode="&#xff;" d="M20 934v139h476v-139h-158l274 -660l222 541q16 39 16 65q0 54 -68 54h-53v139h438v-139h-47q-49 0 -80 -68l-340 -784q-133 -307 -313 -414h-186v123q180 55 297 236l-363 841q-27 66 -76 66h-39zM303 1304.5q0 49.5 35 84t86 34.5t86 -34.5t35 -84t-35 -84t-86 -34.5 t-86 34.5t-35 84zM655 1304.5q0 49.5 35 84t86 34.5t86 -34.5t35 -84t-35 -84t-86 -34.5t-86 34.5t-35 84z" />
<glyph unicode="&#x152;" horiz-adv-x="1959" d="M55 713q0 362 192.5 541.5t559.5 179.5h1087v-381h-149l-25 235h-532v-485h262l16 170h144v-481h-144l-16 170h-262v-519h551l24 263h154v-406h-1116q-746 0 -746 713zM301 713q0 -303 122 -436.5t384 -133.5h145v1145h-145q-262 0 -384 -136t-122 -439z" />
<glyph unicode="&#x153;" horiz-adv-x="1921" d="M43 532q0 254 150.5 403.5t386.5 149.5q143 0 253.5 -61t172.5 -172q121 233 405 233q469 0 469 -516q0 -47 -2 -67h-754q12 -373 328 -373q174 0 268 121h127v-152q-164 -111 -411 -110q-317 0 -435 225q-129 -225 -421 -225q-236 0 -386.5 147t-150.5 397zM272 530 q0 -193 83 -296t227 -103q145 0 230 103.5t85 295.5q0 195 -85 300.5t-230 105.5q-143 0 -226.5 -104.5t-83.5 -301.5zM1130 635h527q-4 168 -64.5 240.5t-181.5 72.5q-250 0 -281 -313z" />
<glyph unicode="&#x178;" horiz-adv-x="1349" d="M31 1298v136h532v-136h-168l322 -528h4l237 393q24 43 25 73q0 16 -7 28q-19 35 -83 34h-66v136h492v-136h-39q-51 0 -92 -65l-387 -631v-405q0 -23 19.5 -44.5t43.5 -21.5h99v-131h-562v131h99q25 0 44 21.5t19 44.5v397l-401 643q-39 61 -88 61h-43zM397 1620 q0 49 35 84t86 35t86 -35t35 -84t-35 -84t-86 -35t-86 35t-35 84zM750 1620q0 49 34.5 84t86 35t86 -35t34.5 -84t-34.5 -84t-86 -35t-86 35t-34.5 84z" />
<glyph unicode="&#x2c6;" horiz-adv-x="819" d="M160 1161v60l153 213h195l149 -213v-60h-90l-161 142l-160 -142h-86z" />
<glyph unicode="&#x2dc;" horiz-adv-x="819" d="M90 1174v112q59 119 184 119q51 0 143.5 -33t119.5 -33q66 0 86 74h106v-115q-57 -119 -184 -118q-51 0 -143.5 35.5t-118.5 35.5q-66 0 -86 -77h-107z" />
<glyph unicode="&#x2000;" horiz-adv-x="952" />
<glyph unicode="&#x2001;" horiz-adv-x="1904" />
<glyph unicode="&#x2002;" horiz-adv-x="952" />
<glyph unicode="&#x2003;" horiz-adv-x="1904" />
<glyph unicode="&#x2004;" horiz-adv-x="634" />
<glyph unicode="&#x2005;" horiz-adv-x="475" />
<glyph unicode="&#x2006;" horiz-adv-x="317" />
<glyph unicode="&#x2007;" horiz-adv-x="317" />
<glyph unicode="&#x2008;" horiz-adv-x="237" />
<glyph unicode="&#x2009;" horiz-adv-x="380" />
<glyph unicode="&#x200a;" horiz-adv-x="104" />
<glyph unicode="&#x2010;" horiz-adv-x="542" d="M55 524v170h430v-170h-430z" />
<glyph unicode="&#x2011;" horiz-adv-x="542" d="M55 524v170h430v-170h-430z" />
<glyph unicode="&#x2012;" horiz-adv-x="542" d="M55 524v170h430v-170h-430z" />
<glyph unicode="&#x2013;" horiz-adv-x="833" d="M55 508v151h721v-151h-721z" />
<glyph unicode="&#x2014;" horiz-adv-x="1359" d="M55 508v151h1248v-151h-1248z" />
<glyph unicode="&#x2018;" horiz-adv-x="337" d="M39 1157q0 254 264 283v-101q-109 -16 -108 -79q0 -14 6 -22.5t23.5 -18t23.5 -13.5q47 -31 47 -96q0 -45 -35 -75.5t-86 -30.5q-57 0 -96 39.5t-39 113.5z" />
<glyph unicode="&#x2019;" horiz-adv-x="337" d="M35 1010v100q106 16 106 80q0 14 -6 22.5t-22.5 17.5t-22.5 13q-47 31 -47 94q0 47 34 78t85 31q57 0 97 -40t40 -114q0 -253 -264 -282z" />
<glyph unicode="&#x201a;" horiz-adv-x="337" d="M35 -82q106 16 106 80q0 14 -6 22.5t-22.5 17.5t-22.5 13q-47 31 -47 96q0 45 34 76t85 31q57 0 97 -39t40 -115q0 -252 -264 -280v98z" />
<glyph unicode="&#x201c;" horiz-adv-x="653" d="M39 1157q0 254 262 283v-101q-106 -16 -106 -79q0 -14 6 -22.5t23.5 -18t23.5 -13.5q47 -31 47 -96q0 -45 -35 -75.5t-86 -30.5q-57 0 -96 39.5t-39 113.5zM352 1157q0 254 266 283v-101q-111 -16 -110 -79q0 -14 6 -22.5t23.5 -18t23.5 -13.5q47 -31 47 -96 q0 -45 -34.5 -75.5t-86.5 -30.5q-57 0 -96 39.5t-39 113.5z" />
<glyph unicode="&#x201d;" horiz-adv-x="653" d="M35 1010v100q106 16 106 80q0 14 -6 22.5t-22.5 17.5t-22.5 13q-47 31 -47 94q0 47 34 78t85 31q57 0 97 -40t40 -114q0 -253 -264 -282zM350 1010v100q106 16 107 80q0 10 -5.5 18.5t-10.5 12.5t-17 11t-18 11q-47 31 -48 94q0 47 34 78t85 31q57 0 97 -40t40 -114 q0 -253 -264 -282z" />
<glyph unicode="&#x201e;" horiz-adv-x="653" d="M35 -82q106 16 106 80q0 14 -6 22.5t-22.5 17.5t-22.5 13q-47 31 -47 96q0 45 34 76t85 31q57 0 97 -39t40 -115q0 -252 -264 -280v98zM350 -82q106 16 107 80q0 14 -5.5 22.5t-23.5 17.5t-22 13q-47 31 -48 96q0 45 34 76t85 31q57 0 97 -39t40 -115q0 -252 -264 -280 v98z" />
<glyph unicode="&#x2022;" horiz-adv-x="643" d="M57 590q0 119 76 190.5t189 71.5q115 0 189.5 -71.5t74.5 -190.5t-75 -188.5t-189 -69.5q-113 0 -189 69.5t-76 188.5z" />
<glyph unicode="&#x2026;" horiz-adv-x="1099" d="M53 119q0 53 39 92t94.5 39t94 -39t38.5 -92t-38.5 -91t-94.5 -38q-57 0 -95 38t-38 91zM418 119q0 53 39 92t94 39t94 -39t39 -92t-39 -91t-94 -38q-57 0 -95 38t-38 91zM782 119q0 53 38 92t93 39q57 0 95.5 -39t38.5 -92t-38 -91t-96 -38q-55 0 -93 38t-38 91z" />
<glyph unicode="&#x202f;" horiz-adv-x="380" />
<glyph unicode="&#x2039;" horiz-adv-x="557" d="M68 471v121l303 385h123v-82l-232 -358v-5l232 -360v-84h-123z" />
<glyph unicode="&#x203a;" horiz-adv-x="557" d="M63 88v80l230 358v6l-230 361v84h125l301 -383v-121l-301 -385h-125z" />
<glyph unicode="&#x205f;" horiz-adv-x="475" />
<glyph unicode="&#x20ac;" horiz-adv-x="1214" d="M43 514v129h111q-2 14 -2 72q0 4 1 30.5t1 32.5h-111v129h123q43 260 199.5 400.5t394.5 140.5q233 0 389 -72v-286h-139q-14 113 -71.5 157.5t-174.5 40.5q-305 0 -356 -381h456l-28 -129h-439v-135h414l-29 -129h-374q25 -190 105.5 -281.5t244.5 -91.5q182 0 282 138 h123v-170q-180 -123 -411 -123q-244 0 -394.5 133t-191.5 395h-123z" />
<glyph unicode="&#x2122;" horiz-adv-x="1402" d="M39 1233v201h528v-201h-86l-12 121h-98v-389q0 -10 9 -18.5t17 -8.5h43v-72h-274v72h41q10 0 18 8t8 19v389h-98l-10 -121h-86zM606 866v72h39q10 0 18.5 8t8.5 19v368q0 8 -9.5 16.5t-17.5 8.5h-39v76h262l119 -367h2l121 367h260v-76h-41q-8 0 -15 -8.5t-7 -16.5v-368 q0 -8 7 -17.5t15 -9.5h41v-72h-260v72h61v395h-4l-153 -467h-88l-152 467h-2v-395h59v-72h-225z" />
<glyph unicode="&#xe000;" horiz-adv-x="1075" d="M0 1075h1075v-1075h-1075v1075z" />
<glyph unicode="&#xfb01;" horiz-adv-x="1120" d="M20 1073h142v92q0 285 313 285q90 0 160 -25v-127h-96q-78 0 -117 -28.5t-39 -110.5v-86h530q43 0 43 -94v-793q0 -20 17.5 -37.5t38.5 -17.5h80v-131h-461v131h104v803h-352v-803h109v-131h-463v131h75q20 0 39 17.5t19 37.5v748h-142v139zM713 1311q0 51 36.5 88t90 37 t90.5 -36t37 -89.5t-37 -89t-90.5 -35.5t-90 37t-36.5 88z" />
<glyph unicode="&#xfb02;" horiz-adv-x="1120" d="M20 1073h142v94q0 283 346 283q94 0 197 -16h208q43 0 43 -56v-1192q0 -20 17.5 -37.5t38.5 -17.5h80v-131h-461v131h104v1167h-168q-98 0 -141 -28.5t-43 -110.5v-86h223v-139h-223v-803h109v-131h-463v131h75q20 0 39 17.5t19 37.5v748h-142v139z" />
<glyph unicode="&#xfb03;" horiz-adv-x="1693" d="M20 934v139h142v82q0 285 303 285q104 0 170 -25v-127h-96q-80 0 -118 -28.5t-38 -110.5v-76h352v92q0 285 314 285q90 0 159 -25v-127h-96q-78 0 -117 -28.5t-39 -110.5v-86h531q43 0 43 -94v-793q0 -20 17.5 -37.5t37.5 -17.5h80v-131h-461v131h105v803h-353v-803h109 v-131h-434v131h104v803h-352v-803h109v-131h-463v131h75q20 0 39 17.5t19 37.5v748h-142zM1286 1311q0 51 37 88t90 37t90 -36t37 -89.5t-37 -89t-90 -35.5t-90 37t-37 88z" />
<glyph unicode="&#xfb04;" horiz-adv-x="1693" d="M20 934v139h142v82q0 285 303 285q104 0 170 -25v-127h-96q-80 0 -118 -28.5t-38 -110.5v-76h352v94q0 283 346 283q94 0 197 -16h209q43 0 43 -56v-1192q0 -20 17.5 -37.5t37.5 -17.5h80v-131h-461v131h105v1167h-168q-98 0 -141.5 -28.5t-43.5 -110.5v-86h224v-139 h-224v-803h109v-131h-434v131h104v803h-352v-803h109v-131h-463v131h75q20 0 39 17.5t19 37.5v748h-142z" />
</font>
</defs>
</svg>
